<?xml version="1.0" standalone="no"?>
<!DOCTYPE svg PUBLIC "-//W3C//DTD SVG 1.1//EN" "http://www.w3.org/Graphics/SVG/1.1/DTD/svg11.dtd" >
<svg xmlns="http://www.w3.org/2000/svg">
<metadata>Generated by IcoMoon</metadata>
<defs>
<font id="icomoon" horiz-adv-x="1024">
<font-face units-per-em="1024" ascent="960" descent="-64" />
<missing-glyph horiz-adv-x="1024" />
<glyph unicode="&#x20;" horiz-adv-x="512" d="" />
<glyph unicode="&#xe900;" glyph-name="nb-user-2" d="M504.702 466.735c67.765 0 126.437 24.305 174.39 72.258 47.937 47.945 72.25 106.609 72.25 174.382 0 67.75-24.305 126.422-72.258 174.382-47.953 47.937-106.625 72.242-174.382 72.242-67.773 0-126.437-24.305-174.382-72.25s-72.258-106.617-72.258-174.375c0-67.773 24.312-126.445 72.258-174.39 47.961-47.937 106.633-72.25 174.382-72.25zM372.757 845.321c36.789 36.789 79.945 54.672 131.945 54.672 51.992 0 95.156-17.883 131.953-54.672 36.789-36.797 54.68-79.961 54.68-131.945 0-52-17.891-95.156-54.68-131.953-36.797-36.797-79.961-54.68-131.953-54.68-51.984 0-95.14 17.891-131.945 54.68-36.797 36.789-54.687 79.953-54.687 131.953 0 51.984 17.891 95.148 54.687 131.945zM936.256 172.595c-1.383 19.953-4.18 41.719-8.297 64.703-4.156 23.156-9.508 45.047-15.914 65.055-6.625 20.68-15.617 41.101-26.75 60.672-11.539 20.312-25.102 38-40.32 52.555-15.914 15.227-35.398 27.469-57.93 36.398-22.453 8.883-47.336 13.383-73.953 13.383-10.453 0-20.562-4.289-40.086-17-12.016-7.836-26.070-16.898-41.758-26.922-13.414-8.547-31.586-16.555-54.031-23.805-21.898-7.086-44.133-10.68-66.086-10.68-21.937 0-44.172 3.594-66.086 10.68-22.422 7.242-40.601 15.25-53.992 23.797-15.539 9.93-29.602 18.992-41.797 26.937-19.508 12.711-29.617 17-40.070 17-26.625 0-51.5-4.508-73.945-13.398-22.516-8.914-42.008-21.156-57.937-36.398-15.219-14.562-28.781-32.242-40.312-52.547-11.117-19.57-20.117-39.984-26.742-60.68-6.398-20.008-11.75-41.891-15.906-65.047-4.125-22.953-6.914-44.726-8.297-64.726-1.359-19.555-2.047-39.906-2.047-60.469 0-53.453 16.992-96.726 50.5-128.64 33.094-31.492 76.875-47.461 130.133-47.461h493.062c53.242 0 97.023 15.969 130.125 47.461 33.516 31.891 50.508 75.18 50.508 128.648-0.008 20.633-0.703 40.984-2.070 60.484zM846.444 26.939c-21.867-20.812-50.898-30.93-88.758-30.93h-493.054c-37.867 0-66.898 10.117-88.758 30.922-21.445 20.414-31.867 48.281-31.867 85.172 0 19.187 0.633 38.133 1.898 56.32 1.234 17.844 3.758 37.445 7.5 58.273 3.695 20.57 8.398 39.875 13.992 57.351 5.367 16.758 12.687 33.351 21.766 49.336 8.664 15.234 18.633 28.305 29.633 38.836 10.289 9.852 23.258 17.914 38.539 23.961 14.133 5.594 30.016 8.656 47.258 9.117 2.102-1.117 5.844-3.25 11.906-7.203 12.336-8.039 26.555-17.211 42.273-27.25 17.719-11.297 40.547-21.5 67.82-30.305 27.883-9.016 56.32-13.594 84.547-13.594s56.672 4.578 84.539 13.586c27.297 8.82 50.117 19.016 67.859 30.328 16.086 10.281 29.906 19.187 42.242 27.234 6.062 3.945 9.805 6.086 11.906 7.203 17.25-0.461 33.133-3.523 47.273-9.117 15.273-6.047 28.242-14.117 38.531-23.961 11-10.523 20.969-23.594 29.633-38.844 9.086-15.977 16.414-32.578 21.773-49.32 5.602-17.5 10.312-36.797 14-57.351 3.734-20.867 6.266-40.476 7.5-58.289v-0.016c1.273-18.117 1.914-37.055 1.922-56.297-0.008-36.898-10.43-64.758-31.875-85.164z" />
<glyph unicode="&#xe901;" glyph-name="nb-user" d="M874.040 298.040c-55.766 55.764-122.142 97.046-194.562 122.036 77.564 53.422 128.522 142.828 128.522 243.924 0 163.214-132.786 296-296 296s-296-132.786-296-296c0-101.096 50.958-190.502 128.524-243.924-72.42-24.99-138.796-66.272-194.562-122.036-96.704-96.706-149.962-225.28-149.962-362.040h80c0 238.206 193.794 432 432 432s432-193.794 432-432h80c0 136.76-53.258 265.334-149.96 362.040zM512 448c-119.102 0-216 96.896-216 216s96.898 216 216 216c119.102 0 216-96.896 216-216s-96.898-216-216-216z" />
<glyph unicode="&#xe902;" glyph-name="nb-twitter" d="M1024 754.070c-64.414-2.969-63.008-2.727-70.289-3.336l38.148 108.945s-119.078-43.805-149.266-51.641c-79.281 71.258-197.125 74.406-281.375 22.625-68.992-42.414-106.023-115.25-93.672-200.383-134.273 18.633-247.406 82.281-336.727 189.578l-28.25 33.93-21.109-38.766c-26.68-48.984-35.539-104.992-24.953-157.703 4.344-21.625 11.727-42.25 21.953-61.563l-24.234 9.391-2.875-40.492c-2.914-41.133 10.781-89.148 36.641-128.43 7.281-11.063 16.656-23.211 28.539-35.195l-12.523 1.922 15.281-46.398c20.086-60.961 61.805-108.125 115.945-134.344-54.070-22.945-97.75-37.586-169.547-61.203l-65.688-21.594 60.672-33.172c23.133-12.648 104.875-54.891 185.641-67.563 179.531-28.156 381.664-5.227 517.742 117.328 114.617 103.227 152.227 250.063 144.414 402.867-1.18 23.133 5.156 45.211 17.844 62.156 25.414 33.93 97.531 132.813 97.688 133.039zM878.336 656.969c-21.070-28.133-31.625-64.063-29.734-101.156 7.883-154.133-34.055-273.664-124.656-355.258-105.836-95.32-276.547-132.734-468.344-102.648-34.734 5.445-70.633 17.641-100.344 29.82 60.195 20.711 106.68 39.172 181.75 74.703l104.797 49.602-115.703 7.406c-55.422 3.547-101.57 30.406-129.938 74.016 15.063 0.875 29.586 3.313 44.047 7.344l110.352 30.734-111.273 27.25c-54.070 13.242-84.891 45.594-101.227 70.406-10.727 16.305-17.734 33.008-21.938 48.406 11.156-2.992 24.164-5.125 45.141-7.203l102.992-10.188-81.602 63.656c-58.797 45.859-82.359 114.758-65.086 180.992 183.5-190.328 398.953-176.023 420.641-181.055-4.773 46.367-4.898 46.477-6.148 50.891-27.773 98.18 33.094 148.031 60.547 164.906 57.344 35.242 148.367 40.555 211.414-17.508 13.617-12.531 32.031-17.461 49.266-13.18 15.469 3.844 28.164 7.914 40.594 12.344l-25.875-73.891 33.031-0.023c-6.234-8.359-13.711-18.367-22.703-30.367z" />
<glyph unicode="&#xe903;" glyph-name="nb-shopping-bag" d="M935.904 105.234l-50.6 491.346c-2.090 20.374-19.254 35.86-39.734 35.86h-665.8c-20.426 0-37.578-15.434-39.722-35.754l-51.96-491.586c-4.288-42.904 10.014-86.022 39.228-118.312 29.216-32.266 70.656-50.788 113.706-50.788h543.306c42.85 0 83.904 18.15 112.586 49.828 29.084 32.052 43.292 75.516 38.99 119.406zM837.752 39.478c-13.796-15.206-32.77-23.582-53.424-23.582h-543.292c-20.52 0-40.374 8.936-54.476 24.514-14.102 15.58-21.012 36.26-18.988 56.514l48.15 455.606h593.8l46.898-455.314c2.132-21.612-4.514-42.118-18.668-57.738zM519.326 960c-126.288 0-229.036-102.746-229.036-229.036v-138.486h79.896v138.486c0 82.24 66.9 149.14 149.14 149.14s149.152-66.9 149.152-149.14v-138.486h79.882v138.486c0.002 126.29-102.744 229.036-229.034 229.036z" />
<glyph unicode="&#xe904;" glyph-name="nb-search" d="M1017.75 2.582l-297.465 297.465c56.42 69.654 90.382 158.206 90.382 254.618 0 223.5-181.834 405.335-405.335 405.335s-405.333-181.834-405.333-405.335 181.834-405.335 405.335-405.335c96.412 0 184.964 33.964 254.618 90.382l297.465-297.465c8.334-8.33 21.838-8.33 30.172 0l30.162 30.164c8.33 8.332 8.33 21.84-0.002 30.17zM405.335 234.665c-176.458 0-320.001 143.542-320.001 320.001s143.542 320.001 320.001 320.001 320.001-143.542 320.001-320.001-143.542-320.001-320.001-320.001z" />
<glyph unicode="&#xe905;" glyph-name="nb-phone-call" d="M758.367 384.126c-38.437-38.484-98.476-98.586-148.75-149.211-59.758 39.117-113.773 82.281-157.211 125.719-53.641 53.641-120.719 130.015-156.969 184.117 46.023 45.695 106.211 105.805 150.375 149.93l-265.32 265.32-132.578-130.195c-37.047-37.047-52.734-87.617-46.625-150.305 19.539-200.453 264.664-490.804 481.351-636.226 125.453-84.195 305.773-162.133 412.429-55.469 77.437 77.43 107.039 108.976 108.266 110.281l19.859 21.203zM852.617 30.259c-80.742-80.734-240.867-1.32-336.523 62.875-201.078 134.953-437.414 411.343-455.046 592.195-4.281 43.891 5.555 78.187 29.227 101.922l89.836 88.219 180.758-180.765c-91.672-91.531-119.289-118.812-141.25-140.555l11.648-20.078c35.375-60.937 117.422-154.633 178.687-215.898 67.203-67.203 136.187-114.648 208.32-159.797l16.898 17.055c37.078 37.414 90.961 91.437 123.219 123.75l181.008-181.008c-16.766-17.305-44.773-45.898-86.781-87.914z" />
<glyph unicode="&#xe906;" glyph-name="nb-pin" d="M512 960c-198.504 0-360-161.496-360-360 0-67.068 18.578-132.52 53.738-189.304l285.77-460.514c5.474-8.822 15.118-14.182 25.49-14.182 0.080 0 0.158 0 0.238 0 10.462 0.082 20.126 5.608 25.5 14.584l278.486 464.976c33.22 55.584 50.778 119.362 50.778 184.44 0 198.504-161.496 360-360 360zM769.732 446.364l-253.188-422.736-259.81 418.68c-29.266 47.264-45.134 101.792-45.134 157.692 0 165.42 134.98 300.4 300.4 300.4s300.2-134.98 300.2-300.4c0-54.242-14.822-107.376-42.468-153.636zM512 780c-99.252 0-180-80.748-180-180 0-98.618 79.434-180 180-180 101.806 0 180 82.466 180 180 0 99.252-80.748 180-180 180zM512 479.6c-66.514 0-120.4 54.066-120.4 120.4 0 66.168 54.232 120.4 120.4 120.4s120.2-54.232 120.2-120.4c0-65.366-52.632-120.4-120.2-120.4z" />
<glyph unicode="&#xe907;" glyph-name="nb-linkedin" d="M264.718 656.751h-172.625c-19.352 0-35.094-15.742-35.094-35.094v-650.569c0-19.344 15.742-35.086 35.094-35.086h172.625c19.344 0 35.086 15.742 35.086 35.086v650.569c0 19.352-15.742 35.094-35.086 35.094zM239.718-3.912h-122.633v600.577h122.633zM178.406 960c-67.5 0-122.406-54.906-122.406-122.398 0-67.5 54.906-122.406 122.406-122.406 67.484 0 122.398 54.906 122.398 122.406 0 67.492-54.906 122.398-122.398 122.398zM178.406 775.282c-34.367 0-62.32 27.953-62.32 62.32 0 34.359 27.953 62.312 62.32 62.312 34.359 0 62.312-27.953 62.312-62.312s-27.953-62.32-62.312-62.32zM858.092 580.477c-41.266 34.445-93.726 52.867-147.664 51.867-33.5-0.617-66.234-8.695-95.898-23.32v14.203c0 18.508-15.008 33.516-33.516 33.516h-175.765c-18.508 0-33.516-15.008-33.516-33.516v-653.71c0-18.516 15.008-33.516 33.516-33.516h179.234c16.594 0 30.047 13.453 30.047 30.039v389.757c0 33.367 26.109 61.601 59.453 62.594 34.656 1.023 63.172-26.859 63.172-61.289v-391.687c0-16.242 13.172-29.414 29.414-29.414h172.257c16.242 0 29.414 13.172 29.414 29.414v379.773c0 91.094-40.148 176.859-110.148 235.289zM908.155-3.912h-110.906v361.015c0 66.937-54.461 121.398-121.406 121.398-66.937 0-121.398-54.461-121.398-121.398v-361.015h-122.625v600.577h122.625v-43.664h0.039c-0.008-7.078 2.453-14.187 7.516-19.914 10.992-12.422 29.984-13.578 42.406-2.578 29.602 26.203 67.648 41.031 107.133 41.766 39.523 0.75 77.883-12.734 108.054-37.922 56.289-46.984 88.562-115.929 88.562-189.164z" />
<glyph unicode="&#xe908;" glyph-name="nb-instagram" d="M746.811 960h-469.624c-152.843 0-277.187-124.344-277.187-277.187v-469.632c0-152.836 124.344-277.179 277.187-277.179h469.632c152.836 0 277.179 124.344 277.179 277.179v469.632c0 152.843-124.344 277.187-277.187 277.187zM963.967 213.181c0-119.734-97.414-217.148-217.156-217.148h-469.624c-119.742 0-217.156 97.414-217.156 217.148v469.632c0 119.742 97.414 217.156 217.156 217.156h469.632c119.734 0 217.148-97.414 217.148-217.156zM511.999 727.993c-154.39 0-279.992-125.601-279.992-279.992s125.601-279.992 279.992-279.992 279.992 125.601 279.992 279.992-125.601 279.992-279.992 279.992zM511.999 228.040c-121.281 0-219.961 98.672-219.961 219.961 0 121.281 98.68 219.961 219.961 219.961 121.289 0 219.961-98.68 219.961-219.961 0-121.289-98.672-219.961-219.961-219.961zM798.686 827.43c-45.625 0-82.734-37.117-82.734-82.734 0-45.625 37.109-82.742 82.734-82.742s82.742 37.117 82.742 82.742-37.117 82.734-82.742 82.734zM798.686 721.993c-12.516 0-22.703 10.187-22.703 22.703 0 12.523 10.187 22.703 22.703 22.703 12.523 0 22.711-10.18 22.711-22.703 0-12.516-10.187-22.703-22.711-22.703z" />
<glyph unicode="&#xe909;" glyph-name="nb-home-run" d="M998.399 516.609c-0.031 0.023-0.055 0.055-0.078 0.078l-417.712 417.696c-17.805 17.813-41.477 27.617-66.656 27.617s-48.852-9.805-66.664-27.617l-417.493-417.485c-0.141-0.141-0.289-0.289-0.422-0.43-36.563-36.774-36.5-96.438 0.18-133.117 16.758-16.766 38.883-26.469 62.547-27.492 0.969-0.094 1.938-0.141 2.914-0.141h16.641v-307.391c0-60.836 49.5-110.328 110.336-110.328h163.422c16.57 0 30 13.438 30 30v241c0 27.758 22.586 50.336 50.344 50.336h96.391c27.758 0 50.336-22.578 50.336-50.336v-241c0-16.563 13.43-30 30-30h163.422c60.844 0 110.336 49.492 110.336 110.328v307.391h15.438c25.172 0 48.844 9.805 66.664 27.625 36.719 36.734 36.734 96.508 0.055 133.266zM955.915 425.765c-6.477-6.477-15.086-10.047-24.234-10.047h-45.438c-16.57 0-30-13.43-30-30v-337.391c0-27.75-22.578-50.328-50.336-50.328h-133.422v211c0 60.836-49.492 110.336-110.336 110.336h-96.391c-60.844 0-110.344-49.5-110.344-110.336v-211h-133.422c-27.75 0-50.336 22.578-50.336 50.328v337.391c0 16.57-13.43 30-30 30h-44.656c-0.469 0.031-0.93 0.055-1.406 0.063-8.938 0.156-17.32 3.703-23.602 9.992-13.359 13.359-13.359 35.102 0 48.469 0.008 0 0.008 0.008 0.016 0.016l417.72 417.704c6.469 6.477 15.070 10.039 24.227 10.039 9.148 0 17.75-3.563 24.227-10.039l417.602-417.595c0.063-0.063 0.133-0.125 0.195-0.188 13.289-13.383 13.266-35.078-0.063-48.414z" />
<glyph unicode="&#xe90a;" glyph-name="nb-hand" d="M832 661.334c-17.536 0-33.878-5.334-47.446-14.422-11.69 33.194-43.392 57.088-80.554 57.088-17.536 0-33.878-5.334-47.446-14.422-11.69 33.194-43.392 57.088-80.554 57.088-15.53 0-30.122-4.182-42.666-11.478v139.478c0 47.062-38.272 85.334-85.334 85.334s-85.334-38.272-85.334-85.334v-498.816l-117.29 58.666c-17.664 8.834-37.462 13.484-57.216 13.484-44.97 0-81.494-36.566-81.494-81.75 0-21.802 8.49-42.24 23.894-57.642l275.882-275.882c62.336-62.38 145.324-96.726 233.558-96.726 152.918 0 277.334 124.416 277.334 277.334v362.666c0 47.062-38.272 85.334-85.334 85.334zM874.666 213.334c0-129.408-105.302-234.666-234.71-234.666-76.842 0-149.034 29.91-203.306 84.266l-275.924 275.882c-7.338 7.296-11.392 17.066-11.392 27.69 0 21.418 17.408 38.826 38.826 38.826 13.184 0 26.326-3.114 38.144-9.002l148.182-74.070c6.614-3.286 14.506-2.944 20.736 0.938 6.272 3.882 10.112 10.752 10.112 18.134v533.334c0 23.51 19.114 42.666 42.666 42.666s42.666-19.158 42.666-42.666v-405.334c0-11.776 9.558-21.334 21.334-21.334s21.334 9.558 21.334 21.334v192c0 23.51 19.114 42.666 42.666 42.666s42.666-19.158 42.666-42.666v-192c0-11.776 9.558-21.334 21.334-21.334s21.334 9.558 21.334 21.334v149.334c0 23.51 19.114 42.666 42.666 42.666s42.666-19.158 42.666-42.666v-149.334c0-11.776 9.558-21.334 21.334-21.334s21.334 9.558 21.334 21.334v106.668c0 23.51 19.114 42.666 42.666 42.666s42.666-19.158 42.666-42.666v-362.666z" />
<glyph unicode="&#xe90b;" glyph-name="nb-gym" d="M964 548h-20v90c0 44.117-35.898 80-80 80-15.422 0-29.844-4.383-42.063-11.977-8.18 35.477-40.039 61.977-77.938 61.977h-0.023c-44.094 0-80-35.883-80-80v-140h-303.953v140c0 44.117-35.906 80-80.023 80-37.898 0-69.758-26.5-77.938-61.977-12.219 7.594-26.641 11.977-42.063 11.977-44.102 0-80-35.883-80-80v-90h-20c-33.078 0-60-26.922-60-60v-80c0-33.078 26.922-60 60-60h20v-90c0-44.117 35.898-80 80-80 15.422 0 29.844 4.383 42.063 11.977 8.18-35.477 40.039-61.977 77.938-61.977h0.023c44.094 0 80 35.883 80 80v140h303.953v-140c0-44.117 35.906-80 80.023-80 37.898 0 69.758 26.5 77.938 61.977 12.219-7.594 26.641-11.977 42.063-11.977 44.102 0 80 35.883 80 80v90h20c33.078 0 60 26.922 60 60v80c0 33.078-26.922 60-60 60zM80 388h-20c-11.023 0-20 8.977-20 20v80c0 11.023 8.977 20 20 20h20zM200 258c0-11.039-4.477-21.039-11.719-28.281s-17.242-11.719-28.281-11.719c-22.063 0-40 17.938-40 40v380c0 22.063 17.938 40 40 40s40-17.938 40-40zM320.023 208c0-22.063-17.961-40-40-40h-0.023c-22.039 0-40 17.938-40 40v480c0 22.063 17.961 40 40.023 40 22.039 0 40-17.938 40-40zM663.859 468h-139.859c-11.039 0-20-8.961-20-20s8.961-20 20-20h139.859v-40h-303.938v120h303.938zM784 208c0-22.063-17.961-40-40.023-40-22.039 0-40 17.938-40 40v238.977c-0.016-0.438-0.055-0.875-0.117-1.297v4.641c0.063-0.422 0.102-0.859 0.117-1.297v238.977c0 22.063 17.961 40 40 40h0.023c22.039 0 40-17.938 40-40zM904 258c0-22.063-17.938-40-40-40s-40 17.938-40 40v380c0 22.063 17.938 40 40 40s40-17.938 40-40zM984 408c0-11.023-8.977-20-20-20h-20v120h20c11.023 0 20-8.977 20-20zM444.039 428c-11.047 0-20.008 8.953-20.008 20s8.945 20 19.992 20h0.016c11.047 0 20-8.953 20-20s-8.953-20-20-20z" />
<glyph unicode="&#xe90c;" glyph-name="nb-google-plus" d="M964 598h-180v-60h-60v-180h60v-60h180v60h60v180h-60zM964 418h-60v-60h-60v60h-60v60h60v60h60v-60h60zM332 778c-183.063 0-332-148.039-332-330s148.938-330 332-330 332 148.039 332 330c0 22.195-2.219 44.391-6.602 65.969l-4.875 24.031h-186.094l122.125 122.133c-9.773 6.844-93.617 117.867-256.555 117.867zM459.641 616.070c-36.305 26.898-81.422 41.93-127.641 41.93-116.102 0-212-94.234-212-210 0-115.625 95.773-210 212-210 90.531 0 170.797 57.625 199.992 139.977l14.195 40.023h-184.188v60h240.352c1.094-9.938 1.648-19.969 1.648-30 0-148.875-122.023-270-272-270s-272 121.125-272 270 122.023 270 272 270c62.125 0 122.766-21.258 170.477-59.094zM453.516 358c-28.359-36.68-73.633-60-121.516-60-83.813 0-152 67.289-152 150s68.188 150 152 150c78.391 0 116.258-54.414 124.016-60h-154.016v-180z" />
<glyph unicode="&#xe90d;" glyph-name="nb-facebook" horiz-adv-x="1022" d="M580-62h-163.984c-27.391 0-49.672 22.281-49.672 49.672v369.875h-95.672c-27.391 0-49.672 22.289-49.672 49.672v158.492c0 27.391 22.281 49.672 49.672 49.672h95.672v79.367c0 78.695 24.711 145.648 71.453 193.609 46.953 48.18 112.57 73.641 189.758 73.641l125.063-0.203c27.344-0.047 49.586-22.328 49.586-49.672v-147.156c0-27.391-22.273-49.672-49.656-49.672l-84.203-0.031c-25.68 0-32.219-5.148-33.617-6.727-2.305-2.617-5.047-10.016-5.047-30.445v-62.703h116.539c8.773 0 17.273-2.164 24.578-6.242 15.758-8.805 25.555-25.453 25.555-43.445l-0.063-158.492c0-27.375-22.281-49.656-49.672-49.656h-116.938v-369.883c0-27.391-22.289-49.672-49.68-49.672zM426.375-1.969h143.266v386.391c0 18.289 14.883 33.164 33.164 33.164h133.453l0.055 137.766h-133.516c-18.281 0-33.156 14.875-33.156 33.164v89.578c0 23.453 2.383 50.125 20.086 70.172 21.391 24.234 55.102 27.031 78.602 27.031l73.844 0.031v126.453l-114.664 0.188c-124.047 0-201.133-79.406-201.133-207.219v-106.234c0-18.281-14.875-33.164-33.156-33.164h-112.188v-137.766h112.188c18.281 0 33.156-14.875 33.156-33.164zM752.5 901.766h0.008z" />
<glyph unicode="&#xe90e;" glyph-name="nb-email" d="M927.999 832.001h-831.999c-52.938 0-96.001-43.063-96.001-96.001v-576c0-52.938 43.063-96.001 96.001-96.001h831.999c52.938 0 96.001 43.063 96.001 96.001v576c0 52.938-43.063 96.001-96.001 96.001zM927.999 768.001c4.348 0 8.484-0.902 12.265-2.477l-428.264-371.18-428.267 371.18c3.781 1.573 7.917 2.477 12.265 2.477zM927.999 128.001h-831.999c-17.656 0-32.001 14.343-32.001 32.001v537.905l427.031-370.094c6.032-5.218 13.501-7.813 20.969-7.813s14.937 2.593 20.969 7.813l427.031 370.094v-537.907c-0.002-17.656-14.345-31.999-32.001-31.999z" />
<glyph unicode="&#xe90f;" glyph-name="nb-down-arrow" d="M1011.488 712.821c-16.682 16.682-43.647 16.682-60.329 0l-439.161-439.159-439.159 439.159c-16.682 16.682-43.647 16.682-60.329 0s-16.682-43.647 0-60.329l469.324-469.324c8.32-8.32 19.242-12.502 30.165-12.502s21.846 4.182 30.165 12.502l469.324 469.324c16.68 16.682 16.68 43.647-0.002 60.329z" />
<glyph unicode="&#xe910;" glyph-name="nb-close" d="M624.782 448l382.859 382.876c10.531 10.54 16.342 24.601 16.359 39.595 0 15.002-5.811 29.080-16.359 39.603l-33.551 33.542c-10.548 10.565-24.609 16.351-39.62 16.351-14.985 0-29.047-5.786-39.595-16.351l-382.859-382.851-382.876 382.851c-10.531 10.565-24.601 16.351-39.603 16.351-14.985 0-29.055-5.786-39.586-16.351l-33.567-33.542c-21.845-21.845-21.845-57.377 0-79.198l382.868-382.876-382.868-382.859c-10.54-10.556-16.342-24.618-16.342-39.611s5.803-29.055 16.342-39.603l33.559-33.542c10.531-10.556 24.609-16.351 39.586-16.351 15.002 0 29.072 5.794 39.603 16.351l382.876 382.859 382.859-382.859c10.548-10.556 24.609-16.351 39.595-16.351h0.017c14.994 0 29.055 5.794 39.603 16.351l33.551 33.542c10.531 10.54 16.342 24.609 16.342 39.603s-5.811 29.055-16.342 39.603l-382.851 382.868z" />
<glyph unicode="&#xe911;" glyph-name="nb-clock" d="M512 960c-282.312 0-512-229.688-512-512s229.688-512 512-512 512 229.688 512 512-229.688 512-512 512zM512 0c-247.032 0-448 200.968-448 448s200.968 448 448 448 448-200.968 448-448-200.968-448-448-448zM544 767.999h-64v-333.249l201.375-201.375 45.25 45.25-182.625 182.625z" />
<glyph unicode="&#xe912;" glyph-name="nb-calendar" d="M906.664-64h-789.328c-64.727 0-117.336 52.609-117.336 117.336v704c0 64.727 52.609 117.328 117.336 117.328h789.328c64.727 0 117.336-52.602 117.336-117.328v-704c0-64.727-52.609-117.336-117.336-117.336zM117.336 810.664c-29.398 0-53.336-23.93-53.336-53.328v-704c0-29.398 23.938-53.336 53.336-53.336h789.328c29.398 0 53.336 23.938 53.336 53.336v704c0 29.398-23.938 53.328-53.336 53.328zM992 554.664h-960c-17.664 0-32 14.336-32 32s14.336 32 32 32h960c17.664 0 32-14.336 32-32s-14.336-32-32-32zM245.336 704c-17.664 0-32 14.336-32 32v192c0 17.664 14.336 32 32 32s32-14.336 32-32v-192c0-17.664-14.336-32-32-32zM778.664 704c-17.664 0-32 14.336-32 32v192c0 17.664 14.336 32 32 32s32-14.336 32-32v-192c0-17.664-14.336-32-32-32z" />
<glyph unicode="&#xe913;" glyph-name="nb-adress" d="M512 960c-207.364 0-375.467-168.102-375.467-375.467 0-201.762 347.511-624.452 362.308-642.338 3.243-3.923 8.068-6.195 13.158-6.195s9.916 2.272 13.158 6.195c14.797 17.886 362.308 440.576 362.308 642.338 0 207.364-168.102 375.467-375.467 375.467zM512-19.814c-64.222 80.162-341.333 435.866-341.333 604.348 0.215 188.425 152.911 341.118 341.333 341.333 188.425-0.215 341.118-152.909 341.333-341.333 0-168.448-277.111-524.169-341.333-604.348zM744.277 649.25l-221.867 170.667c-6.138 4.723-14.684 4.723-20.821 0l-221.867-170.667c-7.465-5.754-8.851-16.471-3.098-23.936 3.23-4.19 8.218-6.645 13.508-6.647h51.2v-187.733c0-9.425 7.642-17.067 17.067-17.067h307.2c9.425 0 17.067 7.642 17.067 17.067v187.733h51.2c9.425 0.004 17.062 7.65 17.058 17.075-0.002 5.291-2.458 10.278-6.647 13.508zM546.133 448h-68.267v102.4h68.267v-102.4zM665.6 652.8c-9.425 0-17.067-7.642-17.067-17.067v-187.733h-68.267v119.467c0 9.425-7.642 17.067-17.067 17.067h-102.4c-9.425 0-17.067-7.642-17.067-17.067v-119.467h-68.267v187.733c0 9.425-7.642 17.067-17.067 17.067h-18.091l171.691 132.062 171.691-132.062h-18.091z" />
<glyph unicode="&#xe914;" glyph-name="nb-arrow" d="M412.138 725.368l38.112 38.107 315.432-315.474-315.432-315.474-38.112 38.104 277.311 277.343-277.311 277.394zM250.454 725.368l38.112 38.107 315.432-315.474-315.432-315.474-38.112 38.104 277.309 277.343-277.309 277.394z" />
<glyph unicode="&#xe915;" glyph-name="nb-delete" d="M872 840h-150.003v30c0 49.626-40.371 90-89.997 90h-240c-49.626 0-90-40.374-90-90v-30h-150c-49.626 0-90-40.374-90-90 0-39.856 26.050-73.722 62.010-85.522l53.51-645.95c3.854-46.278 43.25-82.528 89.688-82.528h489.585c46.438 0 85.837 36.25 89.69 82.541l53.504 645.939c35.962 11.798 62.010 45.664 62.010 85.52 0 49.626-40.371 90-89.997 90zM362 870c0 16.542 13.458 30 30 30h240c16.544 0 30.003-13.458 30.003-30v-30h-300.003v30zM786.688 23.507c-1.286-15.424-14.419-27.507-29.894-27.507h-489.585c-15.478 0-28.611 12.083-29.892 27.494l-52.728 636.506h654.823l-52.723-636.493zM872 720h-720c-16.542 0-30 13.458-30 30s13.458 30 30 30h720c16.544 0 30.003-13.458 30.003-30s-13.459-30-30.003-30zM391.944 87.859l-30 484c-1.026 16.538-15.34 29.116-31.798 28.086-16.538-1.026-29.112-15.262-28.088-31.798l30-484c0.986-15.91 14.194-28.147 29.914-28.147 17.373 0 31.037 14.63 29.972 31.859zM512 600c-16.568 0-30-13.432-30-30v-483.997c0-16.57 13.432-30.003 30-30.003s30 13.434 30 30.003v483.997c0 16.568-13.432 30-30 30zM693.856 599.941c-16.499 1.027-30.771-11.548-31.795-28.086l-30.003-484.003c-1.022-16.531 11.551-30.771 28.089-31.795 16.544-1.024 30.771 11.558 31.795 28.083l30.003 484.003c1.024 16.538-11.552 30.774-28.090 31.798z" />
<glyph unicode="&#xe916;" glyph-name="nb-edit" d="M945.114 316.723c-14.086 0-25.504-11.418-25.504-25.504v-226.438c-0.051-42.24-34.272-76.467-76.512-76.512h-715.583c-42.239 0.045-76.459 34.272-76.508 76.512v664.58c0.050 42.229 34.27 76.459 76.508 76.509h226.438c14.086 0 25.503 11.416 25.503 25.503 0 14.076-11.416 25.503-25.503 25.503h-226.438c-70.392-0.079-127.435-57.123-127.514-127.514v-664.593c0.080-70.387 57.122-127.43 127.514-127.514h715.583c70.394 0.083 127.437 57.126 127.52 127.514v226.451c0 14.086-11.418 25.504-25.504 25.504v0zM960.518 922.51c-44.819 44.819-117.478 44.819-162.298 0l-454.991-454.988c-3.118-3.118-5.37-6.983-6.545-11.227l-59.832-216.008c-2.461-8.858 0.040-18.342 6.535-24.845 6.506-6.496 15.989-8.998 24.845-6.547l216.008 59.846c4.244 1.171 8.109 3.424 11.228 6.541l454.977 454.999c44.749 44.849 44.749 117.453 0 162.302l-29.926 29.926zM398.798 450.946l372.37 372.382 120.096-120.093-372.383-372.382-120.083 120.093zM374.81 402.809l95.945-95.955-132.715-36.768 36.77 132.723zM954.381 766.345l-27.046-27.047-120.102 120.103 27.059 27.047c24.896 24.895 65.261 24.895 90.157 0l29.933-29.926c24.858-24.925 24.858-65.261 0-90.177v0z" />
<glyph unicode="&#xe917;" glyph-name="nb-plus" d="M554.667 789.333c0 23.564-19.102 42.667-42.667 42.667s-42.667-19.103-42.667-42.667v-298.666h-298.666c-23.564 0-42.667-19.102-42.667-42.667s19.103-42.667 42.667-42.667h298.666v-298.664c0-23.565 19.102-42.669 42.667-42.669s42.667 19.104 42.667 42.669v298.664h298.664c23.565 0 42.669 19.102 42.669 42.667s-19.104 42.667-42.669 42.667h-298.664v298.666z" />
<glyph unicode="&#xe918;" glyph-name="nb-search1" d="M31.31 7.535l222.229 222.225c-68.206 77.778-105.84 176.193-105.84 280.604 0 113.973 44.389 221.111 124.972 301.695s187.722 124.972 301.694 124.972c113.972 0 221.111-44.389 301.693-124.972 80.589-80.584 124.971-187.722 124.971-301.695s-44.382-221.111-124.971-301.694c-80.582-80.583-187.721-124.975-301.693-124.975-104.411 0-202.826 37.636-280.603 105.843l-222.229-222.229c-5.556-5.555-12.833-8.337-20.111-8.337s-14.556 2.782-20.111 8.337c-11.111 11.11-11.111 29.107 0 40.226zM835.837 248.893c69.832 69.847 108.308 162.708 108.308 261.472s-38.477 191.625-108.308 261.472c-69.847 69.833-162.708 108.306-261.472 108.306s-191.625-38.472-261.472-108.306c-69.833-69.847-108.306-162.708-108.306-261.472s38.473-191.625 108.306-261.472c69.847-69.833 162.708-108.306 261.472-108.306s191.625 38.473 261.472 108.306z" />
</font>
</defs>
</svg>
